12558网页游戏私服论坛

 找回密码
 立即注册
游戏开服表 申请开服
游戏名称 游戏描述 开服状态 游戏福利 运营商 游戏链接
攻城掠地-仿官 全新玩法,觉醒武将,觉醒技能 每周新区 经典复古版本,长久稳定 进入游戏
巅峰新版攻 攻城掠地公益服 攻城掠地SF 新兵种、新武将(兵种) 进入游戏
游戏盒子— 各种稀有手游私服,可以下载 各种变态版 手游交流群:117375085 进入游戏
刀剑演武 现金BOSS,不氪金也能毕业! 创角就赠送至尊8 绝版GM装备送! 进入游戏
《绝世秘籍》 每日精彩活动嗨不停 充值赠送会员 积分换极品装备 进入游戏
《百战沙城》 不肝不氪也可群殴boss 装备满屏爆 超值首充 进入游戏
全民仙战 任意首充送纯白歌宴绝版绚丽时装! 元宝福利免费领 今日新开 进入游戏
查看: 69|回复: 0

[异种]Species.1995.2160p.BluRay.REMUX.HEVC.DTS-HD.MA.5.1-FGT 70.10GB

[复制链接]
发表于 2022-8-15 15:18:14 | 显示全部楼层 |阅读模式


◎标  题 异种
◎片  名 Species
◎年  代 1995
◎产  地 美国
◎类  别 动作 / 科幻 / 恐怖
◎语  言 英语
◎上映日期 1995-07-07(美国)
◎IMDb评分 5.8/10 (79465人评价)
◎4K影戏下载 http://www.4ktt.com/
◎豆瓣评分 6.4/10 (17137人评价)
◎豆瓣链接 https://movie.douban.com/subject/1293442/
◎片  长 108 分钟
◎导  演 罗杰·唐纳森 Roger Donaldson
◎编  剧 丹尼斯·费尔德曼 Dennis Feldman
◎演  员 本·金斯利 Ben Kingsley
       迈克尔·马德森 Michael Madsen
       阿尔弗雷德·莫里纳 Alfred Molina
       福里斯特·惠特克 Forest Whitaker
       玛格·海根柏格 Marg Helgenberger
       娜塔莎·亨斯屈奇 Natasha Henstridge
       米歇尔·威廉姆斯 Michelle Williams
       乔丹·朗德 Jordan Lund
       大卫·詹森 David Jensen
       伊斯特·斯高特 Esther Scott
       威廉·尤泰 William Utay
       赫塔威尔 Herta Ware
       威廉姆·鲍姆利尔 William Bumiller
       卡洛琳·巴克利 Caroline Barclay
       马修·阿什福德 Matthew Ashford
       安东尼·吉德拉 Anthony Guidera
       Sara Lise Sara Lise
       维普哈布莱 Whip Hubley
       帕特里夏·贝尔彻 Patricia Belcher
       理查德·凡西 Richard Fancy
       爱德·斯通 Ed Stone
       丹德里·泰勒 Dendrie Taylor
       达娜·喜 Dana Hee
       弗兰克·维尔克 Frank Welker
       安德泽·巴特科维卡 Andrzej Bartkowiak
       Jellybean Benítez Jellybean Benítez
       Jimmy Chunga Jimmy Chunga
       罗杰·唐纳森 Roger Donaldson
       James Ent James Ent
       扎克·克努森 Zak Knutson
       Coati Mundi Coati Mundi
       Peter Wick Peter Wick
       克里斯托弗·杨 Christopher Young
       安德泽·巴特科维卡 Andrzej Bartkowiak
       康拉德·巴夫四世 Conrad Buff IV
       凯茜·桑德里奇 Cathy Sandrich
       Amanda Mackey Johnson Amanda Mackey Johnson
       丹·韦伯斯特 Dan Webster
       乔·汤普金斯 Joe I. Tompkins
       Nina Paskowitz Nina Paskowitz
       Kenny Myers Kenny Myers
       史蒂夫·约翰逊 Steve Johnson
       Tracey Levy Tracey Levy
       戴维·沃马克 David Womark
       Suzie Pelissier Suzie Pelissier
       李·奥尔洛夫 Lee Orloff
       Ellen Somers Ellen Somers
       David A. Smith David A. Smith
       朗·西蒙森 Ron Simonson
       Olivier Sarda Olivier Sarda
       Ray Moore Ray Moore
       米歇尔·莫恩 Michele Moen
       Meher Gourjian Meher Gourjian
       卡林·乔伊 Karin Joy
       雅克·斯特罗维斯 Jacques Stroweis
       David Jones David Jones
       吉姆·瑞吉尔 Jim Rygiel
       戴尔·拜尔 Dale Baer
       克里斯托尔·道德 Crystal Dowd
       马可·伍斯特 Marco Wuest

◎简  介  
  自20世纪70年代开始,美国政府实行了名为SETI的计划,30年来不中断的用射电望远镜扫描宇宙空间,旨在寻找外星生物和相关文明。在犹他州的德威市,有一所隶属政府的实验室,这里正在进行一项秘密试验。在此之前,人类曾受到外星文明发回的信息,其中包括外星生物的DNA组成和生命重组的方法。犹他州实验室的科学家们利用外星人提供的资料培养出拥有外星人DNA的新人类“塞尔”。出于某种缘故原由,政府决定中止这项实验,但其中一个塞尔却逃出实验室。她将给人类带来怎样的影响?                                    
                                本片荣获1996年MTV影戏奖最佳银幕之吻奖、1995年科环宇宙杂志最佳化装奖、1995年Sitges-Catalonian国际影戏节最佳特效奖。
Video
ID                                       : 1
ID in the original source medium         : 4113 (0x1011)
Format                                   : HEVC
Format/Info                              : High Efficiency Video Coding
Format profile                           : Main [email protected]@High
HDR format                               : Dolby Vision, Version 1.0, dvhe.07.06, BL+EL+RPU, Blu-ray compatible / SMPTE ST 2086, HDR10 compatible
Codec ID                                 : V_MPEGH/ISO/HEVC
Duration                                 : 1 h 48 min
Bit rate                                 : 81.8 Mb/s
Width                                    : 3 840 pixels
Height                                   : 2 160 pixels
Display aspect ratio                     : 16:9
Frame rate mode                          : Constant
Frame rate                               : 24.000 FPS
Color space                              : YUV
Chroma subsampling                       : 4:2:0 (Type 2)
Bit depth                                : 10 bits
Bits/(Pixel*Frame)                       : 0.411
Stream size                              : 61.9 GiB (88%)
Language                                 : English
Default                                  : No
Forced                                   : No
Color range                              : Limited
Color primaries                          : BT.2020
Transfer characteristics                 : PQ
Matrix coefficients                      : BT.2020 non-constant
Mastering display color primaries        : Display P3
Mastering display luminance              : min: 0.0001 cd/m2, max: 1000 cd/m2
Maximum Content Light Level              : 1200 cd/m2
Maximum Frame-Average Light Level        : 760 cd/m2
Original source medium                   : Blu-ray

Audio #1
ID                                       : 2
ID in the original source medium         : 4352 (0x1100)
Format                                   : DTS XLL
Format/Info                              : Digital Theater Systems
Commercial name                          : DTS-HD Master Audio
Codec ID                                 : A_DTS
Duration                                 : 1 h 48 min
Bit rate mode                            : Variable
Bit rate                                 : 4 106 kb/s
Channel(s)                               : 6 channels
Channel layout                           : C L R Ls Rs LFE
Sampling rate                            : 48.0 kHz
Frame rate                               : 93.750 FPS (512 SPF)
Bit depth                                : 24 bits
Compression mode                         : Lossless
Stream size                              : 3.11 GiB (4%)
Title                                    : DTS-HD MA 5.1
Language                                 : English
Default                                  : Yes
Forced                                   : No
Original source medium                   : Blu-ray

Audio #2
ID                                       : 3
Format                                   : AC-3
Format/Info                              : Audio Coding 3
Commercial name                          : Dolby Digital
Codec ID                                 : A_AC3
Duration                                 : 1 h 48 min
Bit rate mode                            : Constant
Bit rate                                 : 640 kb/s
Channel(s)                               : 6 channels
Channel layout                           : L R C LFE Ls Rs
Sampling rate                            : 48.0 kHz
Frame rate                               : 31.250 FPS (1536 SPF)
Compression mode                         : Lossy
Stream size                              : 496 MiB (1%)
Title                                    : DD 5.1
Language                                 : English
Service kind                             : Complete Main
Default                                  : No
Forced                                   : No

Audio #3
ID                                       : 4
ID in the original source medium         : 4353 (0x1101)
Format                                   : DTS XLL
Format/Info                              : Digital Theater Systems
Commercial name                          : DTS-HD Master Audio
Codec ID                                 : A_DTS
Duration                                 : 1 h 48 min
Bit rate mode                            : Variable
Bit rate                                 : 2 031 kb/s
Channel(s)                               : 2 channels
Channel layout                           : L R
Sampling rate                            : 48.0 kHz
Frame rate                               : 93.750 FPS (512 SPF)
Bit depth                                : 24 bits
Compression mode                         : Lossless
Stream size                              : 1.54 GiB (2%)
Title                                    : DTS-HD MA 2.0
Language                                 : English
Default                                  : No
Forced                                   : No
Original source medium                   : Blu-ray

Audio #4
ID                                       : 5
ID in the original source medium         : 4354 (0x1102)
Format                                   : DTS XLL
Format/Info                              : Digital Theater Systems
Commercial name                          : DTS-HD Master Audio
Codec ID                                 : A_DTS
Duration                                 : 1 h 48 min
Bit rate mode                            : Variable
Bit rate                                 : 1 988 kb/s
Channel(s)                               : 2 channels
Channel layout                           : L R
Sampling rate                            : 48.0 kHz
Frame rate                               : 93.750 FPS (512 SPF)
Bit depth                                : 24 bits
Compression mode                         : Lossless
Stream size                              : 1.50 GiB (2%)
Title                                    : DTS-HD MA 2.0
Language                                 : English
Default                                  : No
Forced                                   : No
Original source medium                   : Blu-ray

Audio #5
ID                                       : 6
ID in the original source medium         : 4355 (0x1103)
Format                                   : DTS XLL
Format/Info                              : Digital Theater Systems
Commercial name                          : DTS-HD Master Audio
Codec ID                                 : A_DTS
Duration                                 : 1 h 48 min
Bit rate mode                            : Variable
Bit rate                                 : 1 986 kb/s
Channel(s)                               : 2 channels
Channel layout                           : L R
Sampling rate                            : 48.0 kHz
Frame rate                               : 93.750 FPS (512 SPF)
Bit depth                                : 24 bits
Compression mode                         : Lossless
Stream size                              : 1.50 GiB (2%)
Title                                    : DTS-HD MA 2.0
Language                                 : English
Default                                  : No
Forced                                   : No
Original source medium                   : Blu-ray

Text #1
ID                                       : 7
Format                                   : UTF-8
Codec ID                                 : S_TEXT/UTF8
Codec ID/Info                            : UTF-8 Plain Text
Duration                                 : 1 h 37 min
Bit rate                                 : 43 b/s
Frame rate                               : 0.191 FPS
Count of elements                        : 1117
Stream size                              : 31.4 KiB (0%)
Language                                 : English
Default                                  : Yes
Forced                                   : No

Text #2
ID                                       : 8
Format                                   : UTF-8
Codec ID                                 : S_TEXT/UTF8
Codec ID/Info                            : UTF-8 Plain Text
Duration                                 : 1 h 43 min
Bit rate                                 : 46 b/s
Frame rate                               : 0.215 FPS
Count of elements                        : 1331
Stream size                              : 35.4 KiB (0%)
Title                                    : SDH
Language                                 : English
Default                                  : No
Forced                                   : No

Text #3
ID                                       : 9
ID in the original source medium         : 4768 (0x12A0)
Format                                   : PGS
Muxing mode                              : zlib
Codec ID                                 : S_HDMV/PGS
Codec ID/Info                            : Picture based subtitle format used on BDs/HD-DVDs
Duration                                 : 1 h 43 min
Bit rate                                 : 29.7 kb/s
Frame rate                               : 0.434 FPS
Count of elements                        : 2680
Stream size                              : 21.9 MiB (0%)
Language                                 : English
Default                                  : No
Forced                                   : No
Original source medium                   : Blu-ray

Menu
00:00:00.000                             : en:Chapter 01
00:08:27.041                             : en:Chapter 02
00:17:38.166                             : en:Chapter 03
00:27:12.416                             : en:Chapter 04
00:36:29.458                             : en:Chapter 05
00:45:07.291                             : en:Chapter 06
00:54:03.000                             : en:Chapter 07
01:03:12.916                             : en:Chapter 08
01:11:50.750                             : en:Chapter 09
01:17:46.708                             : en:Chapter 10
01:29:00.500                             : en:Chapter 11
01:42:30.333                             : en:Chapter 12





来源:http://www.12558.net
免责声明:如果侵犯了您的权益,请联系站长,我们会及时删除侵权内容,谢谢合作!
楼主热帖
您需要登录后才可以回帖 登录 | 立即注册

本版积分规则

QQ|Archiver|手机版|小黑屋|12558网页游戏私服论坛 |网站地图

GMT+8, 2022-10-5 14:28 , Processed in 0.109375 second(s), 22 queries .

Powered by Discuz! X3.4

© 2001-2017 Comsenz Inc.

快速回复 返回顶部 返回列表