12558网页游戏私服论坛

 找回密码
 立即注册
游戏开服表 申请开服
游戏名称 游戏描述 开服状态 游戏福利 运营商 游戏链接
攻城掠地-仿官 全新玩法,觉醒武将,觉醒技能 每周新区 经典复古版本,长久稳定 进入游戏
巅峰新版攻 攻城掠地公益服 攻城掠地SF 新兵种、新武将(兵种) 进入游戏
游戏盒子— 各种稀有手游私服,可以下载 各种变态版 手游交流群:117375085 进入游戏
刀剑演武 现金BOSS,不氪金也能毕业! 创角就赠送至尊8 绝版GM装备送! 进入游戏
《绝世秘籍》 每日精彩活动嗨不停 充值赠送会员 积分换极品装备 进入游戏
《百战沙城》 不肝不氪也可群殴boss 装备满屏爆 超值首充 进入游戏
全民仙战 任意首充送纯白歌宴绝版绚丽时装! 元宝福利免费领 今日新开 进入游戏
查看: 106|回复: 0

[比利小子]The.Kid.2019.2160p.BluRay.REMUX.HEVC.SDR.DTS-HD.MA.5.1-FGT 4

[复制链接]
发表于 2022-8-15 15:19:47 | 显示全部楼层 |阅读模式
帖子比利小子 The.Kid.2019.2160p.BluRay.REMUX.HEVC.SDR.DTS-HD.MA.5.1-FGT 44.08GB




◎标  题 比利小子
◎译  名 小子
◎片  名 The Kid
◎年  代 2019
◎产  地 美国
◎类  别 剧情 / 传记 / 西部
◎语  言 英语
◎上映日期 2019-03-08(美国)
◎IMDb评分 5.9/10 (7901人评价)
◎4K电影下载 http://www.4ktt.com/
◎豆瓣评分 5.9/10 (763人评价)
◎豆瓣链接 https://movie.douban.com/subject/26959517/
◎片  长 100分钟
◎导  演 文森特·多诺费奥 Vincent D'Onofrio
◎编  剧 安德鲁·兰纳姆 Andrew Lanham
◎演  员 克里斯·帕拉特 Chris Pratt
       文森特·多诺费奥 Vincent D'Onofrio
       伊桑·霍克 Ethan Hawke
       莱拉·乔治 Leila George
       戴恩·德哈恩 Dane DeHaan
       亚当·鲍德温 Adam Baldwin
       基思·雅各 Keith Jardine
       泰特·弗莱彻 Tait Fletcher
       詹妮加布里埃尔 Jenny Gabrielle
       斯塔福德·道格拉斯 Stafford Douglas
       蕾切尔·德·拉·托尔 Rachel de la Torre
       J·内森·西蒙斯 J. Nathan Simmons
       保罗· 罗森布拉姆 Paul Rosenblum
       杰克·舒尔 Jake Schur

◎标  签 西部 / 美国 / 犯罪 / 2019 / 西部片 / 剧情 / 冒险 / 动作

◎简  介  
    男孩Rio(Jake Schur)被迫穿过美国西南部,试图从他暴虐(克里斯·帕拉特)的叔叔手中,救回他的姐姐Sara(莱拉·乔治)。另一边,著名的不法之徒比利小子(戴恩·德哈恩)正遭到警长派特·加勒特(伊桑·霍克)的追捕。                                                                      Rio与这两人相遇,目睹了比例和警长之间关于逃跑、追捕、斗争的故事,并渐渐卷入其中。但终极,Rio要做出选择,他要成为哪种人,法外之徒还是正义代表?另外,他将怎样从恶舅舅帕帕手中救下姐姐?
Video
ID                                       : 1
ID in the original source medium         : 4113 (0x1011)
Format                                   : HEVC
Format/Info                              : High Efficiency Video Coding
Format profile                           : Main [email protected]@High
Codec ID                                 : V_MPEGH/ISO/HEVC
Duration                                 : 1 h 39 min
Bit rate                                 : 59.0 Mb/s
Width                                    : 3 840 pixels
Height                                   : 2 160 pixels
Display aspect ratio                     : 16:9
Frame rate mode                          : Constant
Frame rate                               : 23.976 (24000/1001/189150) FPS
Color space                              : YUV
Chroma subsampling                       : 4:2:0 (Type 2)
Bit depth                                : 10 bits
Bits/(Pixel*Frame)                       : 0.297
Stream size                              : 41.2 GiB (93%)
Language                                 : English
Default                                  : No
Forced                                   : No
Color range                              : Limited
Color primaries                          : BT.709
Transfer characteristics                 : BT.709
Matrix coefficients                      : BT.709
Original source medium                   : Blu-ray

Audio #1
ID                                       : 2
ID in the original source medium         : 4352 (0x1100)
Format                                   : DTS XLL
Format/Info                              : Digital Theater Systems
Commercial name                          : DTS-HD Master Audio
Codec ID                                 : A_DTS
Duration                                 : 1 h 39 min
Bit rate mode                            : Variable
Bit rate                                 : 3 473 kb/s
Channel(s)                               : 6 channels
Channel layout                           : C L R Ls Rs LFE
Sampling rate                            : 48.0 kHz
Frame rate                               : 93.750 FPS (512 SPF)
Bit depth                                : 24 bits
Compression mode                         : Lossless
Stream size                              : 2.42 GiB (6%)
Title                                    : DTS-HD MA 5.1
Language                                 : English
Default                                  : Yes
Forced                                   : No
Original source medium                   : Blu-ray

Audio #2
ID                                       : 3
Format                                   : AC-3
Format/Info                              : Audio Coding 3
Commercial name                          : Dolby Digital
Codec ID                                 : A_AC3
Duration                                 : 1 h 39 min
Bit rate mode                            : Constant
Bit rate                                 : 640 kb/s
Channel(s)                               : 6 channels
Channel layout                           : L R C LFE Ls Rs
Sampling rate                            : 48.0 kHz
Frame rate                               : 31.250 FPS (1536 SPF)
Compression mode                         : Lossy
Stream size                              : 458 MiB (1%)
Title                                    : DD 5.1
Language                                 : English
Service kind                             : Complete Main
Default                                  : No
Forced                                   : No

Text #1
ID                                       : 4
Format                                   : UTF-8
Codec ID                                 : S_TEXT/UTF8
Codec ID/Info                            : UTF-8 Plain Text
Duration                                 : 1 h 36 min
Bit rate                                 : 46 b/s
Frame rate                               : 0.171 FPS
Count of elements                        : 986
Stream size                              : 32.6 KiB (0%)
Language                                 : English
Default                                  : Yes
Forced                                   : No

Text #2
ID                                       : 5
Format                                   : UTF-8
Codec ID                                 : S_TEXT/UTF8
Codec ID/Info                            : UTF-8 Plain Text
Duration                                 : 1 h 36 min
Bit rate                                 : 49 b/s
Frame rate                               : 0.184 FPS
Count of elements                        : 1070
Stream size                              : 35.2 KiB (0%)
Title                                    : SDH
Language                                 : English
Default                                  : No
Forced                                   : No

Text #3
ID                                       : 6
ID in the original source medium         : 4608 (0x1200)
Format                                   : PGS
Muxing mode                              : zlib
Codec ID                                 : S_HDMV/PGS
Codec ID/Info                            : Picture based subtitle format used on BDs/HD-DVDs
Duration                                 : 1 h 37 min
Bit rate                                 : 30.5 kb/s
Frame rate                               : 0.376 FPS
Count of elements                        : 2194
Stream size                              : 21.2 MiB (0%)
Language                                 : English
Default                                  : No
Forced                                   : No
Original source medium                   : Blu-ray

Text #4
ID                                       : 7
ID in the original source medium         : 4609 (0x1201)
Format                                   : PGS
Muxing mode                              : zlib
Codec ID                                 : S_HDMV/PGS
Codec ID/Info                            : Picture based subtitle format used on BDs/HD-DVDs
Duration                                 : 1 h 38 min
Bit rate                                 : 26.2 kb/s
Frame rate                               : 0.321 FPS
Count of elements                        : 1896
Stream size                              : 18.5 MiB (0%)
Language                                 : Spanish
Default                                  : No
Forced                                   : No
Original source medium                   : Blu-ray

Menu
00:00:00.000                             : en:Chapter 01
00:10:01.225                             : en:Chapter 02
00:20:01.116                             : en:Chapter 03
00:30:03.134                             : en:Chapter 04
00:40:02.900                             : en:Chapter 05
00:50:03.583                             : en:Chapter 06
01:00:03.558                             : en:Chapter 07
01:10:04.867                             : en:Chapter 08
01:20:06.510                             : en:Chapter 09
01:30:06.025                             : en:Chapter 10
01:33:26.517                             : en:Chapter 11





来源:http://www.12558.net
免责声明:如果侵犯了您的权益,请联系站长,我们会及时删除侵权内容,谢谢合作!
楼主热帖
您需要登录后才可以回帖 登录 | 立即注册

本版积分规则

QQ|Archiver|手机版|小黑屋|12558网页游戏私服论坛 |网站地图

GMT+8, 2022-10-5 13:34 , Processed in 0.140625 second(s), 22 queries .

Powered by Discuz! X3.4

© 2001-2017 Comsenz Inc.

快速回复 返回顶部 返回列表