12558网页游戏私服论坛

 找回密码
 立即注册
游戏开服表 申请开服
游戏名称 游戏描述 开服状态 游戏福利 运营商 游戏链接
攻城掠地-仿官 全新玩法,觉醒武将,觉醒技能 每周新区 经典复古版本,长久稳定 进入游戏
巅峰新版攻 攻城掠地公益服 攻城掠地SF 新兵种、新武将(兵种) 进入游戏
游戏盒子— 各种稀有手游私服,可以下载 各种变态版 手游交流群:117375085 进入游戏
刀剑演武 现金BOSS,不氪金也能毕业! 创角就赠送至尊8 绝版GM装备送! 进入游戏
《绝世秘籍》 每日精彩活动嗨不停 充值赠送会员 积分换极品装备 进入游戏
《百战沙城》 不肝不氪也可群殴boss 装备满屏爆 超值首充 进入游戏
全民仙战 任意首充送纯白歌宴绝版绚丽时装! 元宝福利免费领 今日新开 进入游戏
查看: 23|回复: 0

[最后的巫师猎人].2015.2160p.FRA.BluRay.REMUX.HEVC.DTS-X.7.1-FGT 51.83G

[复制链接]
发表于 2022-8-15 15:18:27 | 显示全部楼层 |阅读模式

◎标  题 最后的巫师猎人
◎译  名 最后的女巫猎人 / 巫间猎人(港) / 猎巫举措:大灭绝(台) / Son Cadi Avcisi
◎片  名 The Last Witch Hunter
◎年  代 2015
◎产  地 美国
◎类  别 动作 / 奇幻 / 冒险
◎语  言 英语
◎上映日期 2016-01-15(中国大陆) / 2015-10-23(美国)
◎IMDb评分 6/10 (100741人评价)
◎4K影戏下载 http://www.4ktt.com/
◎豆瓣评分 5.9/10 (53783人评价)
◎豆瓣链接 https://movie.douban.com/subject/10440076/
◎片  长 107分钟
◎导  演 布瑞克·埃斯纳尔 Breck Eisner
◎编  剧 科里·古德曼 Cory Goodman
       马特·萨兹马 Matt Sazama
       伯克·沙普利斯 Burk Sharpless
       梅丽莎·沃雷克 Melisa Wallack
◎演  员 范·迪塞尔 Vin Diesel
       露丝·莱斯利 Rose Leslie
       伊利亚·伍德 Elijah Wood
       奥拉维尔·达里·奥拉夫松 ólafur Darri ólafsson
       丽纳·欧文 Rena Owen
       朱莉·恩格尔布雷希特 Julie Engelbrecht
       迈克尔·凯恩 Michael Caine
       约瑟夫·吉尔根 Joseph Gilgun
       伊萨赫·德·班克尔 Isaach De Bankolé
       迈克尔·哈尔西 Michael Halsey
       斯隆·库姆斯 Sloane Coombs
       洛特·弗贝克 Lotte Verbeek
       道恩·奥利弗瑞 Dawn Olivieri
       因巴尔·拉维 Inbar Lavi
       阿玛尼·杰克森 Armani Jackson
       艾米·卡里诺 Aimee Carrero
       贝克斯·泰勒-克劳斯 Bex Taylor-Klaus
       大卫·惠伦 David Whalen
       杰克厄迪 Jack Erdie
       Allegra Carpenter Allegra Carpenter
       萨马拉·李 Samara Lee
       大卫·维格 David Vegh
       丹佛·米洛 Denver Milord
       邦妮·摩根 Bonnie Morgan
       马克·斯达格 Mark Steger
       肖恩·卡拉汉 Shane Callahan
       杰克逊·弗雷泽 Jackson Frazer
       詹姆斯·哈奇森三世 James Hutchison III
       凯西·亨德肖特 Casey Hendershot
       埃夫卡·科瓦拉西尤斯 Efka Kvaraciejus
       Jared S. Eddo Jared S. Eddo
       Mike Mukatis Mike Mukatis
       琼·瓦勒拉 Jon Valera
       Kurt Angle Kurt Angle
       约翰·伯纳克 John Bernecker
       阿什克·阿赫塔尔 Asheq Akhtar
       婕咪·埃迪 Jamie Eddy
       威廉·卡尼亚 William Kania

◎标  签 奇幻 / 美国 / 范·迪塞尔 / 动作 / 魔幻 / 冒险 / 惊悚 / 2015

◎简  介  
    考尔德(范·迪塞尔 Vin Diesel 饰)是一名女巫猎人,在巫后的诅咒之下,他得到了不灭的灵魂和不朽的躯体。永生带来的痛楚远远大于欢愉,在孤独和绝望之中,考尔德度过了漫长的时光,然而,他却从未放弃过身为一名巫师猎人所应尽的职责,他知道,女巫并没有绝迹,一个巨大的阴谋正在阴影里缓慢酝酿。                                                                      果不其然,巫后得到了可以或许使自己复活的秘术,与此同时,各地的女巫们亦按耐不住,纷纷蠢蠢欲动,妄图实现消灭人类统治天下的野心。考尔德和助手多兰(伊利亚·伍德 Elijah Wood 饰)想要面临繁杂而又强盛的对手,必须得到善良女巫克洛伊(萝斯·莱斯利 Rose Leslie 饰)的资助。一场恶战即将拉开序幕。
Video
ID                                       : 1
ID in the original source medium         : 4113 (0x1011)
Format                                   : HEVC
Format/Info                              : High Efficiency Video Coding
Format profile                           : Main [email protected]@High
HDR format                               : Dolby Vision, Version 1.0, dvhe.07.06, BL+EL+RPU, Blu-ray compatible / SMPTE ST 2086, HDR10 compatible
Codec ID                                 : V_MPEGH/ISO/HEVC
Duration                                 : 1 h 46 min
Bit rate                                 : 60.1 Mb/s
Width                                    : 3 840 pixels
Height                                   : 2 160 pixels
Display aspect ratio                     : 16:9
Frame rate mode                          : Constant
Frame rate                               : 23.976 (24000/1001/189150) FPS
Color space                              : YUV
Chroma subsampling                       : 4:2:0 (Type 2)
Bit depth                                : 10 bits
Bits/(Pixel*Frame)                       : 0.302
Stream size                              : 44.7 GiB (86%)
Language                                 : English
Default                                  : No
Forced                                   : No
Color range                              : Limited
Color primaries                          : BT.2020
Transfer characteristics                 : PQ
Matrix coefficients                      : BT.2020 non-constant
Mastering display color primaries        : Display P3
Mastering display luminance              : min: 0.0001 cd/m2, max: 1000 cd/m2
Original source medium                   : Blu-ray

Audio #1
ID                                       : 2
ID in the original source medium         : 4353 (0x1101)
Format                                   : DTS XLL X
Format/Info                              : Digital Theater Systems
Commercial name                          : DTS-HD Master Audio
Codec ID                                 : A_DTS
Duration                                 : 1 h 46 min
Bit rate mode                            : Variable
Bit rate                                 : 4 678 kb/s
Channel(s)                               : 8 channels
Channel(s)_Original                      : Object Based
ChannelLayout_Original                   : Object Based
Sampling rate                            : 48.0 kHz
Frame rate                               : 93.750 FPS (512 SPF)
Bit depth                                : 24 bits
Stream size                              : 3.48 GiB (7%)
Title                                    : DTS-X 7.1
Language                                 : English
Default                                  : Yes
Forced                                   : No
Original source medium                   : Blu-ray

Audio #2
ID                                       : 3
Format                                   : AC-3
Format/Info                              : Audio Coding 3
Commercial name                          : Dolby Digital
Codec ID                                 : A_AC3
Duration                                 : 1 h 46 min
Bit rate mode                            : Constant
Bit rate                                 : 640 kb/s
Channel(s)                               : 6 channels
Channel layout                           : L R C LFE Ls Rs
Sampling rate                            : 48.0 kHz
Frame rate                               : 31.250 FPS (1536 SPF)
Compression mode                         : Lossy
Stream size                              : 488 MiB (1%)
Title                                    : DD 5.1
Language                                 : English
Service kind                             : Complete Main
Default                                  : No
Forced                                   : No

Audio #3
ID                                       : 4
ID in the original source medium         : 4352 (0x1100)
Format                                   : DTS XLL
Format/Info                              : Digital Theater Systems
Commercial name                          : DTS-HD Master Audio
Codec ID                                 : A_DTS
Duration                                 : 1 h 46 min
Bit rate mode                            : Variable
Bit rate                                 : 3 433 kb/s
Channel(s)                               : 6 channels
Channel layout                           : C L R Ls Rs LFE
Sampling rate                            : 48.0 kHz
Frame rate                               : 93.750 FPS (512 SPF)
Bit depth                                : 24 bits
Compression mode                         : Lossless
Stream size                              : 2.56 GiB (5%)
Title                                    : DTS-HD MA 5.1
Language                                 : French
Default                                  : No
Forced                                   : No
Original source medium                   : Blu-ray

Audio #4
ID                                       : 5
ID in the original source medium         : 4354 (0x1102)
Format                                   : DTS
Format/Info                              : Digital Theater Systems
Codec ID                                 : A_DTS
Duration                                 : 1 h 46 min
Bit rate mode                            : Constant
Bit rate                                 : 768 kb/s
Channel(s)                               : 2 channels
Channel layout                           : L R
Sampling rate                            : 48.0 kHz
Frame rate                               : 93.750 FPS (512 SPF)
Bit depth                                : 24 bits
Compression mode                         : Lossy
Stream size                              : 585 MiB (1%)
Title                                    : DTS 2.0
Language                                 : French
Default                                  : No
Forced                                   : No
Original source medium                   : Blu-ray

Text #1
ID                                       : 6
Format                                   : UTF-8
Codec ID                                 : S_TEXT/UTF8
Codec ID/Info                            : UTF-8 Plain Text
Duration                                 : 1 h 35 min
Bit rate                                 : 39 b/s
Frame rate                               : 0.183 FPS
Count of elements                        : 1053
Stream size                              : 27.8 KiB (0%)
Language                                 : English
Default                                  : Yes
Forced                                   : No

Text #2
ID                                       : 7
ID in the original source medium         : 4768 (0x12A0)
Format                                   : PGS
Muxing mode                              : zlib
Codec ID                                 : S_HDMV/PGS
Codec ID/Info                            : Picture based subtitle format used on BDs/HD-DVDs
Duration                                 : 1 h 38 min
Bit rate                                 : 70 b/s
Frame rate                               : 0.001 FPS
Count of elements                        : 4
Stream size                              : 50.8 KiB (0%)
Language                                 : French
Default                                  : No
Forced                                   : No
Original source medium                   : Blu-ray

Text #3
ID                                       : 8
ID in the original source medium         : 4769 (0x12A1)
Format                                   : PGS
Muxing mode                              : zlib
Codec ID                                 : S_HDMV/PGS
Codec ID/Info                            : Picture based subtitle format used on BDs/HD-DVDs
Duration                                 : 1 h 44 min
Bit rate                                 : 18.6 kb/s
Frame rate                               : 0.300 FPS
Count of elements                        : 1890
Stream size                              : 14.0 MiB (0%)
Language                                 : French
Default                                  : No
Forced                                   : No
Original source medium                   : Blu-ray

Text #4
ID                                       : 9
ID in the original source medium         : 4770 (0x12A2)
Format                                   : PGS
Muxing mode                              : zlib
Codec ID                                 : S_HDMV/PGS
Codec ID/Info                            : Picture based subtitle format used on BDs/HD-DVDs
Duration                                 : 1 h 46 min
Bit rate                                 : 23.8 kb/s
Frame rate                               : 0.382 FPS
Count of elements                        : 2430
Stream size                              : 18.1 MiB (0%)
Language                                 : French
Default                                  : No
Forced                                   : No
Original source medium                   : Blu-ray

Menu
00:00:00.000                             : en:Chapter 01
00:08:01.481                             : en:Chapter 02
00:16:34.493                             : en:Chapter 03
00:25:18.016                             : en:Chapter 04
00:31:50.408                             : en:Chapter 05
00:40:02.817                             : en:Chapter 06
00:47:21.547                             : en:Chapter 07
00:55:46.343                             : en:Chapter 08
01:03:55.498                             : en:Chapter 09
01:12:10.784                             : en:Chapter 10
01:20:55.851                             : en:Chapter 11
01:30:39.434                             : en:Chapter 12





来源:http://www.12558.net
免责声明:如果侵犯了您的权益,请联系站长,我们会及时删除侵权内容,谢谢合作!
楼主热帖
您需要登录后才可以回帖 登录 | 立即注册

本版积分规则

QQ|Archiver|手机版|小黑屋|12558网页游戏私服论坛 |网站地图

GMT+8, 2022-10-5 13:33 , Processed in 0.109375 second(s), 22 queries .

Powered by Discuz! X3.4

© 2001-2017 Comsenz Inc.

快速回复 返回顶部 返回列表