12558网页游戏私服论坛

 找回密码
 立即注册
游戏开服表 申请开服
游戏名称 游戏描述 开服状态 游戏福利 运营商 游戏链接
攻城掠地-仿官 全新玩法,觉醒武将,觉醒技能 每周新区 经典复古版本,长久稳定 进入游戏
巅峰新版攻 攻城掠地公益服 攻城掠地SF 新兵种、新武将(兵种) 进入游戏
游戏盒子— 各种稀有手游私服,可以下载 各种变态版 手游交流群:117375085 进入游戏
刀剑演武 现金BOSS,不氪金也能毕业! 创角就赠送至尊8 绝版GM装备送! 进入游戏
《绝世秘籍》 每日精彩活动嗨不停 充值赠送会员 积分换极品装备 进入游戏
《百战沙城》 不肝不氪也可群殴boss 装备满屏爆 超值首充 进入游戏
全民仙战 任意首充送纯白歌宴绝版绚丽时装! 元宝福利免费领 今日新开 进入游戏
查看: 70|回复: 0

[别闯阴阳界]Flatliners.1990.2160p.BluRay.REMUX.HEVC.DTS-HD.MA.5.1-FGT

[复制链接]
发表于 2022-8-15 15:27:54 | 显示全部楼层 |阅读模式

◎标  题 别闯阴阳界
◎译  名 灵异空间 / 脉搏探测器
◎片  名 Flatliners
◎年  代 1990
◎产  地 美国
◎类  别 剧情 / 科幻 / 惊悚
◎语  言 英语
◎上映日期 1990-08-10(美国)
◎IMDb评分 6.6/10 (84386人评价)
◎4K电影下载 http://www.4ktt.com/
◎豆瓣评分 6.4/10 (1762人评价)
◎豆瓣链接 https://movie.douban.com/subject/1293140/
◎片  长 115 分钟
◎导  演 乔·舒马赫 Joel Schumacher
◎编  剧 彼得·费拉迪 Peter Filardi
◎演  员 基弗·萨瑟兰 Kiefer Sutherland
       朱莉娅·罗伯茨 Julia Roberts
       凯文·贝肯 Kevin Bacon
       威廉·鲍德温 William Baldwin
       奥利弗·普莱特 Oliver Platt
       金伯利·斯科特 Kimberly Scott
       乔舒亚·鲁杜瓦 Joshua Rudoy
       埃里克·伊根 Aeryk Egan
       霍普·戴维斯 Hope Davis
       吉姆·奥特莱比 Jim Ortlieb
       特蕾莎·托马斯 Tressa Thomas
       埃维利纳·费尔南德斯 Evelina Fernández
       彼得·费拉迪 Peter Filardi
       迈克尔·道格拉斯 Michael Douglas
       里克·比伯 Rick Bieber
       尤吉尼欧·扎内蒂 Eugenio Zanetti
       Jim Dultz Jim Dultz
       安妮·库尔贾安 Anne Kuljian
       苏珊·贝克 Susan Becker
       约兰达·塔辛 Yolanda Toussieng
       维·尼尔 Ve Neill
       格雷格·卡农 Greg Cannom
       吉姆·丹弗斯 Jim Danforth

◎标  签 惊悚 / 美国 / 生理 / 灵异 / 1990 / 科幻 / 可怕 / JuliaRoberts

◎简  介  
  几个芝加哥大学附属医院高材生,在好奇心的驱使下,策划了一场探索殒命奥秘的疯狂实验。他们轮番躺在手术室里进入殒命状态,再由其他守护的同学将自己救活。这场惊险又刺激的殒命穿梭,在一个漆黑的深夜里一步步的开始了。                                       
                                    第一个进行测试的纳尔逊(基弗·萨瑟兰 Kiefer Sutherland 饰)在“死”去之后,遇见了因他的侮辱而死去的男孩。死而复生后的纳尔逊,虽然各种感官都变得更加敏锐和灵敏,却陷入深深的梦魇之中;接受实验的第二个人是好色的乔(威廉·鲍德温 William Baldwin 饰),他见到了各种色情场面,并且遇见了曾虐待过的女孩;紧接着,戴维(凯文·贝肯 Kevin Bacon 饰)也接受了实验,他则将殒命实验耽误到了两分钟;女学生蕾切尔(朱莉娅·罗伯茨 Julia Roberts 饰)更是在殒命时间里,重温了父亲身杀的经过。在体验过殒命天下之后,...
Video
ID                                       : 1
ID in the original source medium         : 4113 (0x1011)
Format                                   : HEVC
Format/Info                              : High Efficiency Video Coding
Format profile                           : Main [email protected]@High
HDR format                               : Dolby Vision, Version 1.0, dvhe.07.06, BL+EL+RPU, Blu-ray compatible / SMPTE ST 2086, HDR10 compatible
Codec ID                                 : V_MPEGH/ISO/HEVC
Duration                                 : 1 h 54 min
Bit rate                                 : 91.7 Mb/s
Width                                    : 3 840 pixels
Height                                   : 2 160 pixels
Display aspect ratio                     : 16:9
Frame rate mode                          : Constant
Frame rate                               : 23.976 (24000/1001/189150) FPS
Color space                              : YUV
Chroma subsampling                       : 4:2:0 (Type 2)
Bit depth                                : 10 bits
Bits/(Pixel*Frame)                       : 0.461
Stream size                              : 73.2 GiB (94%)
Language                                 : English
Default                                  : No
Forced                                   : No
Color range                              : Limited
Color primaries                          : BT.2020
Transfer characteristics                 : PQ
Matrix coefficients                      : BT.2020 non-constant
Mastering display color primaries        : Display P3
Mastering display luminance              : min: 0.0050 cd/m2, max: 4000 cd/m2
Maximum Content Light Level              : 10000 cd/m2
Maximum Frame-Average Light Level        : 1335 cd/m2
Original source medium                   : Blu-ray

Audio #1
ID                                       : 2
ID in the original source medium         : 4352 (0x1100)
Format                                   : DTS XLL
Format/Info                              : Digital Theater Systems
Commercial name                          : DTS-HD Master Audio
Codec ID                                 : A_DTS
Duration                                 : 1 h 54 min
Bit rate mode                            : Variable
Bit rate                                 : 3 743 kb/s
Channel(s)                               : 6 channels
Channel layout                           : C L R Ls Rs LFE
Sampling rate                            : 48.0 kHz
Frame rate                               : 93.750 FPS (512 SPF)
Bit depth                                : 24 bits
Compression mode                         : Lossless
Stream size                              : 2.99 GiB (4%)
Title                                    : DTS-HD MA 5.1
Language                                 : English
Default                                  : Yes
Forced                                   : No
Original source medium                   : Blu-ray

Audio #2
ID                                       : 3
Format                                   : AC-3
Format/Info                              : Audio Coding 3
Commercial name                          : Dolby Digital
Codec ID                                 : A_AC3
Duration                                 : 1 h 54 min
Bit rate mode                            : Constant
Bit rate                                 : 640 kb/s
Channel(s)                               : 6 channels
Channel layout                           : L R C LFE Ls Rs
Sampling rate                            : 48.0 kHz
Frame rate                               : 31.250 FPS (1536 SPF)
Compression mode                         : Lossy
Stream size                              : 523 MiB (1%)
Title                                    : DD 5.1
Language                                 : English
Service kind                             : Complete Main
Default                                  : No
Forced                                   : No

Audio #3
ID                                       : 4
ID in the original source medium         : 4353 (0x1101)
Format                                   : DTS XLL
Format/Info                              : Digital Theater Systems
Commercial name                          : DTS-HD Master Audio
Codec ID                                 : A_DTS
Duration                                 : 1 h 54 min
Bit rate mode                            : Variable
Bit rate                                 : 1 610 kb/s
Channel(s)                               : 2 channels
Channel layout                           : L R
Sampling rate                            : 48.0 kHz
Frame rate                               : 93.750 FPS (512 SPF)
Bit depth                                : 24 bits
Compression mode                         : Lossless
Stream size                              : 1.28 GiB (2%)
Title                                    : DTS-HD MA 2.0
Language                                 : English
Default                                  : No
Forced                                   : No
Original source medium                   : Blu-ray

Audio #4
ID                                       : 5
ID in the original source medium         : 4354 (0x1102)
Format                                   : AC-3
Format/Info                              : Audio Coding 3
Commercial name                          : Dolby Digital
Codec ID                                 : A_AC3
Duration                                 : 1 h 54 min
Bit rate mode                            : Constant
Bit rate                                 : 112 kb/s
Channel(s)                               : 2 channels
Channel layout                           : L R
Sampling rate                            : 48.0 kHz
Frame rate                               : 31.250 FPS (1536 SPF)
Compression mode                         : Lossy
Stream size                              : 91.5 MiB (0%)
Title                                    : DD 2.0
Language                                 : English
Service kind                             : Complete Main
Default                                  : No
Forced                                   : No
Original source medium                   : Blu-ray

Text #1
ID                                       : 6
Format                                   : UTF-8
Codec ID                                 : S_TEXT/UTF8
Codec ID/Info                            : UTF-8 Plain Text
Duration                                 : 1 h 48 min
Bit rate                                 : 56 b/s
Frame rate                               : 0.192 FPS
Count of elements                        : 1246
Stream size                              : 44.8 KiB (0%)
Language                                 : English
Default                                  : Yes
Forced                                   : No

Text #2
ID                                       : 7
Format                                   : UTF-8
Codec ID                                 : S_TEXT/UTF8
Codec ID/Info                            : UTF-8 Plain Text
Duration                                 : 1 h 49 min
Bit rate                                 : 60 b/s
Frame rate                               : 0.212 FPS
Count of elements                        : 1387
Stream size                              : 48.5 KiB (0%)
Title                                    : SDH
Language                                 : English
Default                                  : No
Forced                                   : No

Text #3
ID                                       : 8
ID in the original source medium         : 4768 (0x12A0)
Format                                   : PGS
Muxing mode                              : zlib
Codec ID                                 : S_HDMV/PGS
Codec ID/Info                            : Picture based subtitle format used on BDs/HD-DVDs
Duration                                 : 1 h 49 min
Bit rate                                 : 39.7 kb/s
Frame rate                               : 0.427 FPS
Count of elements                        : 2798
Stream size                              : 31.0 MiB (0%)
Language                                 : English
Default                                  : No
Forced                                   : No
Original source medium                   : Blu-ray

Menu
00:00:00.000                             : en:Chapter 01
00:09:34.240                             : en:Chapter 02
00:20:42.115                             : en:Chapter 03
00:29:04.200                             : en:Chapter 04
00:37:24.700                             : en:Chapter 05
00:45:39.987                             : en:Chapter 06
00:58:05.607                             : en:Chapter 07
01:12:35.601                             : en:Chapter 08
01:19:31.433                             : en:Chapter 09
01:26:45.783                             : en:Chapter 10
01:34:28.287                             : en:Chapter 11
01:42:10.749                             : en:Chapter 12





来源:http://www.12558.net
免责声明:如果侵犯了您的权益,请联系站长,我们会及时删除侵权内容,谢谢合作!
楼主热帖
您需要登录后才可以回帖 登录 | 立即注册

本版积分规则

QQ|Archiver|手机版|小黑屋|12558网页游戏私服论坛 |网站地图

GMT+8, 2022-10-5 13:31 , Processed in 0.125000 second(s), 22 queries .

Powered by Discuz! X3.4

© 2001-2017 Comsenz Inc.

快速回复 返回顶部 返回列表