12558网页游戏私服论坛

 找回密码
 立即注册
游戏开服表 申请开服
游戏名称 游戏描述 开服状态 游戏福利 运营商 游戏链接
攻城掠地-仿官 全新玩法,觉醒武将,觉醒技能 每周新区 经典复古版本,长久稳定 进入游戏
巅峰新版攻 攻城掠地公益服 攻城掠地SF 新兵种、新武将(兵种) 进入游戏
游戏盒子— 各种稀有手游私服,可以下载 各种变态版 手游交流群:117375085 进入游戏
刀剑演武 现金BOSS,不氪金也能毕业! 创角就赠送至尊8 绝版GM装备送! 进入游戏
《绝世秘籍》 每日精彩活动嗨不停 充值赠送会员 积分换极品装备 进入游戏
《百战沙城》 不肝不氪也可群殴boss 装备满屏爆 超值首充 进入游戏
全民仙战 任意首充送纯白歌宴绝版绚丽时装! 元宝福利免费领 今日新开 进入游戏
查看: 68|回复: 0

[暖暖内含光].2004.2160p.BluRay.REMUX.HEVC.DTS-HD.MA.5.1-FGT 70.20GB

[复制链接]
发表于 2022-8-15 15:19:17 | 显示全部楼层 |阅读模式

◎标  题 暖暖内含光
◎译  名 暧暧内含光 / 美丽心灵的永恒阳光 / 纯洁心灵的永恒阳光 / 无瑕心灵的永恒阳光 / 无痛失恋(港) / 王牌冤家(台) / 灵光乍现 / 忘记你我做不到(豆友译名)
◎片  名 Eternal Sunshine of the Spotless Mind
◎年  代 2004
◎产  地 美国
◎类  别 剧情 / 爱情 / 科幻
◎语  言 英语
◎上映日期 2004-03-19(美国)
◎IMDb评分 8.3/10 (957331人评价)
◎4K电影下载 http://www.4ktt.com/
◎豆瓣链接 https://movie.douban.com/subject/1308777/
◎片  长 108分钟

◎标  签 爱情 / 美国 / 文艺 / 奇幻 / 心理 / 剧情 / 失忆 / 浪漫

◎简  介  
    内向沉稳的约尔•巴瑞斯(金•凯瑞 饰)在一次聚会中熟悉了率真随性的克莱门汀•克罗斯基(凯特•温丝莱特 饰),二人成为情侣。和平凡的情侣一样,他们的日子也在甜蜜和争吵中度过。                                                                      2004年恋人节前夕,当约尔精心预备好礼品,为不久前一次争吵找到克莱门汀致歉时,他惊讶地发现,克莱门汀根本都不记得他了。原来激动的克莱门汀受不了二人交往中争吵的痛楚,到“忘情诊所”,把关于约尔的记忆删除得一干二净。                                                                      约尔无法原谅克莱门汀的任性,也无法忍受失去她的痛楚,所以他也到了“忘情诊所”,请求医生霍华德博士(汤姆•维尔金森 饰)消除关于克莱门汀的记忆。                                                                      记忆清除步调开始启动,约尔在自己的记忆中游走,他发现和克莱斯汀一起度过的那些韶光,无论是痛楚还是甜蜜,都弥足贵重,他并不想忘记这个自己深爱的女人。但是,步调一旦启动就无法逆转,约尔只能想尽办法把克莱斯汀藏到记忆最深的地方,那些现实中克莱斯汀本来没有出现过的时间角落,以保存这份爱情……
Video
ID                                       : 1
ID in the original source medium         : 4113 (0x1011)
Format                                   : HEVC
Format/Info                              : High Efficiency Video Coding
Format profile                           : Main [email protected]@High
HDR format                               : Dolby Vision, Version 1.0, dvhe.07.06, BL+EL+RPU, Blu-ray compatible / SMPTE ST 2086, HDR10 compatible
Codec ID                                 : V_MPEGH/ISO/HEVC
Duration                                 : 1 h 47 min
Bit rate                                 : 85.0 Mb/s
Width                                    : 3 840 pixels
Height                                   : 2 160 pixels
Display aspect ratio                     : 16:9
Frame rate mode                          : Constant
Frame rate                               : 24.000 FPS
Color space                              : YUV
Chroma subsampling                       : 4:2:0 (Type 2)
Bit depth                                : 10 bits
Bits/(Pixel*Frame)                       : 0.427
Stream size                              : 64.0 GiB (91%)
Language                                 : English
Default                                  : No
Forced                                   : No
Color range                              : Limited
Color primaries                          : BT.2020
Transfer characteristics                 : PQ
Matrix coefficients                      : BT.2020 non-constant
Mastering display color primaries        : Display P3
Mastering display luminance              : min: 0.0001 cd/m2, max: 1000 cd/m2
Maximum Content Light Level              : 1090 cd/m2
Maximum Frame-Average Light Level        : 206 cd/m2
Original source medium                   : Blu-ray

Audio #1
ID                                       : 2
ID in the original source medium         : 4352 (0x1100)
Format                                   : DTS XLL
Format/Info                              : Digital Theater Systems
Commercial name                          : DTS-HD Master Audio
Codec ID                                 : A_DTS
Duration                                 : 1 h 47 min
Bit rate mode                            : Variable
Bit rate                                 : 3 595 kb/s
Channel(s)                               : 6 channels
Channel layout                           : C L R Ls Rs LFE
Sampling rate                            : 48.0 kHz
Frame rate                               : 93.750 FPS (512 SPF)
Bit depth                                : 24 bits
Compression mode                         : Lossless
Stream size                              : 2.71 GiB (4%)
Title                                    : DTS-HD MA 5.1
Language                                 : English
Default                                  : Yes
Forced                                   : No
Original source medium                   : Blu-ray

Audio #2
ID                                       : 3
Format                                   : AC-3
Format/Info                              : Audio Coding 3
Commercial name                          : Dolby Digital
Codec ID                                 : A_AC3
Duration                                 : 1 h 47 min
Bit rate mode                            : Constant
Bit rate                                 : 640 kb/s
Channel(s)                               : 6 channels
Channel layout                           : L R C LFE Ls Rs
Sampling rate                            : 48.0 kHz
Frame rate                               : 31.250 FPS (1536 SPF)
Compression mode                         : Lossy
Stream size                              : 493 MiB (1%)
Title                                    : DD 5.1
Language                                 : English
Service kind                             : Complete Main
Default                                  : No
Forced                                   : No

Audio #3
ID                                       : 4
ID in the original source medium         : 4353 (0x1101)
Format                                   : DTS XLL
Format/Info                              : Digital Theater Systems
Commercial name                          : DTS-HD Master Audio
Codec ID                                 : A_DTS
Duration                                 : 1 h 47 min
Bit rate mode                            : Variable
Bit rate                                 : 1 988 kb/s
Channel(s)                               : 2 channels
Channel layout                           : L R
Sampling rate                            : 48.0 kHz
Frame rate                               : 93.750 FPS (512 SPF)
Bit depth                                : 24 bits
Compression mode                         : Lossless
Stream size                              : 1.50 GiB (2%)
Title                                    : DTS-HD MA 2.0
Language                                 : English
Default                                  : No
Forced                                   : No
Original source medium                   : Blu-ray

Audio #4
ID                                       : 5
ID in the original source medium         : 4354 (0x1102)
Format                                   : DTS XLL
Format/Info                              : Digital Theater Systems
Commercial name                          : DTS-HD Master Audio
Codec ID                                 : A_DTS
Duration                                 : 1 h 47 min
Bit rate mode                            : Variable
Bit rate                                 : 1 977 kb/s
Channel(s)                               : 2 channels
Channel layout                           : L R
Sampling rate                            : 48.0 kHz
Frame rate                               : 93.750 FPS (512 SPF)
Bit depth                                : 24 bits
Compression mode                         : Lossless
Stream size                              : 1.49 GiB (2%)
Title                                    : DTS-HD MA 2.0
Language                                 : English
Default                                  : No
Forced                                   : No
Original source medium                   : Blu-ray

Text #1
ID                                       : 6
Format                                   : UTF-8
Codec ID                                 : S_TEXT/UTF8
Codec ID/Info                            : UTF-8 Plain Text
Duration                                 : 1 h 45 min
Bit rate                                 : 68 b/s
Frame rate                               : 0.262 FPS
Count of elements                        : 1661
Stream size                              : 52.7 KiB (0%)
Language                                 : English
Default                                  : Yes
Forced                                   : No

Text #2
ID                                       : 7
Format                                   : UTF-8
Codec ID                                 : S_TEXT/UTF8
Codec ID/Info                            : UTF-8 Plain Text
Duration                                 : 1 h 46 min
Bit rate                                 : 77 b/s
Frame rate                               : 0.276 FPS
Count of elements                        : 1772
Stream size                              : 60.7 KiB (0%)
Title                                    : SDH
Language                                 : English
Default                                  : No
Forced                                   : No

Text #3
ID                                       : 8
ID in the original source medium         : 4768 (0x12A0)
Format                                   : PGS
Muxing mode                              : zlib
Codec ID                                 : S_HDMV/PGS
Codec ID/Info                            : Picture based subtitle format used on BDs/HD-DVDs
Duration                                 : 1 h 46 min
Bit rate                                 : 46.7 kb/s
Frame rate                               : 0.556 FPS
Count of elements                        : 3566
Stream size                              : 35.7 MiB (0%)
Language                                 : English
Default                                  : No
Forced                                   : No
Original source medium                   : Blu-ray

Menu
00:00:00.000                             : en:Chapter 01
00:10:32.125                             : en:Chapter 02
00:23:42.625                             : en:Chapter 03
00:35:12.833                             : en:Chapter 04
00:47:59.416                             : en:Chapter 05
00:59:22.416                             : en:Chapter 06
01:08:04.416                             : en:Chapter 07
01:18:35.416                             : en:Chapter 08
01:26:31.416                             : en:Chapter 09
01:36:49.750                             : en:Chapter 10





来源:http://www.12558.net
免责声明:如果侵犯了您的权益,请联系站长,我们会及时删除侵权内容,谢谢合作!
楼主热帖
您需要登录后才可以回帖 登录 | 立即注册

本版积分规则

QQ|Archiver|手机版|小黑屋|12558网页游戏私服论坛 |网站地图

GMT+8, 2022-10-5 14:38 , Processed in 0.140625 second(s), 22 queries .

Powered by Discuz! X3.4

© 2001-2017 Comsenz Inc.

快速回复 返回顶部 返回列表