12558网页游戏私服论坛

 找回密码
 立即注册
游戏开服表 申请开服
游戏名称 游戏描述 开服状态 游戏福利 运营商 游戏链接
攻城掠地-仿官 全新玩法,觉醒武将,觉醒技能 每周新区 经典复古版本,长久稳定 进入游戏
巅峰新版攻 攻城掠地公益服 攻城掠地SF 新兵种、新武将(兵种) 进入游戏
游戏盒子— 各种稀有手游私服,可以下载 各种变态版 手游交流群:117375085 进入游戏
刀剑演武 现金BOSS,不氪金也能毕业! 创角就赠送至尊8 绝版GM装备送! 进入游戏
《绝世秘籍》 每日精彩活动嗨不停 充值赠送会员 积分换极品装备 进入游戏
《百战沙城》 不肝不氪也可群殴boss 装备满屏爆 超值首充 进入游戏
全民仙战 任意首充送纯白歌宴绝版绚丽时装! 元宝福利免费领 今日新开 进入游戏
查看: 141|回复: 0

[绿灯侠:绿灯长明].2022.2160p.BluRay.REMUX.HEVC.DTS-HD.MA.5.1-FGT 33.3

[复制链接]
发表于 2022-8-15 15:38:45 | 显示全部楼层 |阅读模式


◎标  题 绿灯侠:绿灯长明
◎片  名 Green Lantern: Beware My Power
◎年  代 2022
◎产  地 美国
◎类  别 动画
◎语  言 英语
◎IMDb链接 https://www.imdb.com/title//
◎豆瓣链接 https://movie.douban.com/subject/35633924/

◎简  介  
  During today’s DC Fandome event a number of animated films were announced for the summer of 2022. Among them is Green Lantern: Beware My Power. No details were disclosed about the plot, characters, or casting.
Video
ID                                       : 1
ID in the original source medium         : 4113 (0x1011)
Format                                   : HEVC
Format/Info                              : High Efficiency Video Coding
Format profile                           : Main [email protected]@High
HDR format                               : SMPTE ST 2086, HDR10 compatible
Codec ID                                 : V_MPEGH/ISO/HEVC
Duration                                 : 1 h 27 min
Bit rate                                 : 50.6 Mb/s
Width                                    : 3 840 pixels
Height                                   : 2 160 pixels
Display aspect ratio                     : 16:9
Frame rate mode                          : Constant
Frame rate                               : 23.976 (24000/1001/189150) FPS
Color space                              : YUV
Chroma subsampling                       : 4:2:0 (Type 2)
Bit depth                                : 10 bits
Bits/(Pixel*Frame)                       : 0.254
Stream size                              : 30.9 GiB (93%)
Writing library                          : ATEME Titan File 3.9.6 (4.9.6.2)        
Language                                 : English
Default                                  : No
Forced                                   : No
Color range                              : Limited
Color primaries                          : BT.2020
Transfer characteristics                 : PQ
Matrix coefficients                      : BT.2020 non-constant
Mastering display color primaries        : BT.2020
Mastering display luminance              : min: 0.0050 cd/m2, max: 4000 cd/m2
Maximum Content Light Level              : 355 cd/m2
Maximum Frame-Average Light Level        : 169 cd/m2
Original source medium                   : Blu-ray

Audio #1
ID                                       : 2
ID in the original source medium         : 4352 (0x1100)
Format                                   : DTS XLL
Format/Info                              : Digital Theater Systems
Commercial name                          : DTS-HD Master Audio
Codec ID                                 : A_DTS
Duration                                 : 1 h 27 min
Bit rate mode                            : Variable
Bit rate                                 : 2 049 kb/s
Channel(s)                               : 6 channels
Channel layout                           : C L R Ls Rs LFE
Sampling rate                            : 48.0 kHz
Frame rate                               : 93.750 FPS (512 SPF)
Bit depth                                : 24 bits
Compression mode                         : Lossless
Stream size                              : 1.25 GiB (4%)
Title                                    : DTS-HD MA 5.1
Language                                 : English
Default                                  : Yes
Forced                                   : No
Original source medium                   : Blu-ray

Audio #2
ID                                       : 3
Format                                   : AC-3
Format/Info                              : Audio Coding 3
Commercial name                          : Dolby Digital
Codec ID                                 : A_AC3
Duration                                 : 1 h 27 min
Bit rate mode                            : Constant
Bit rate                                 : 640 kb/s
Channel(s)                               : 6 channels
Channel layout                           : L R C LFE Ls Rs
Sampling rate                            : 48.0 kHz
Frame rate                               : 31.250 FPS (1536 SPF)
Compression mode                         : Lossy
Stream size                              : 401 MiB (1%)
Title                                    : DD 5.1
Language                                 : English
Service kind                             : Complete Main
Default                                  : No
Forced                                   : No

Audio #3
ID                                       : 4
ID in the original source medium         : 4353 (0x1101)
Format                                   : AC-3
Format/Info                              : Audio Coding 3
Commercial name                          : Dolby Digital
Codec ID                                 : A_AC3
Duration                                 : 1 h 27 min
Bit rate mode                            : Constant
Bit rate                                 : 640 kb/s
Channel(s)                               : 6 channels
Channel layout                           : L R C LFE Ls Rs
Sampling rate                            : 48.0 kHz
Frame rate                               : 31.250 FPS (1536 SPF)
Compression mode                         : Lossy
Stream size                              : 401 MiB (1%)
Title                                    : DD 5.1
Language                                 : French
Service kind                             : Complete Main
Default                                  : No
Forced                                   : No
Original source medium                   : Blu-ray

Audio #4
ID                                       : 5
ID in the original source medium         : 4354 (0x1102)
Format                                   : AC-3
Format/Info                              : Audio Coding 3
Commercial name                          : Dolby Digital
Codec ID                                 : A_AC3
Duration                                 : 1 h 27 min
Bit rate mode                            : Constant
Bit rate                                 : 640 kb/s
Channel(s)                               : 6 channels
Channel layout                           : L R C LFE Ls Rs
Sampling rate                            : 48.0 kHz
Frame rate                               : 31.250 FPS (1536 SPF)
Compression mode                         : Lossy
Stream size                              : 401 MiB (1%)
Title                                    : DD 5.1
Language                                 : Spanish
Service kind                             : Complete Main
Default                                  : No
Forced                                   : No
Original source medium                   : Blu-ray

Text #1
ID                                       : 6
Format                                   : UTF-8
Codec ID                                 : S_TEXT/UTF8
Codec ID/Info                            : UTF-8 Plain Text
Duration                                 : 1 h 23 min
Bit rate                                 : 45 b/s
Frame rate                               : 0.167 FPS
Count of elements                        : 838
Stream size                              : 28.2 KiB (0%)
Language                                 : English
Default                                  : Yes
Forced                                   : No

Text #2
ID                                       : 7
Format                                   : UTF-8
Codec ID                                 : S_TEXT/UTF8
Codec ID/Info                            : UTF-8 Plain Text
Duration                                 : 1 h 24 min
Bit rate                                 : 49 b/s
Frame rate                               : 0.188 FPS
Count of elements                        : 954
Stream size                              : 30.4 KiB (0%)
Title                                    : SDH
Language                                 : English
Default                                  : No
Forced                                   : No

Text #3
ID                                       : 8
ID in the original source medium         : 4768 (0x12A0)
Format                                   : PGS
Muxing mode                              : zlib
Codec ID                                 : S_HDMV/PGS
Codec ID/Info                            : Picture based subtitle format used on BDs/HD-DVDs
Duration                                 : 1 h 24 min
Bit rate                                 : 30.4 kb/s
Frame rate                               : 0.377 FPS
Count of elements                        : 1914
Stream size                              : 18.4 MiB (0%)
Language                                 : English
Default                                  : No
Forced                                   : No
Original source medium                   : Blu-ray

Text #4
ID                                       : 9
ID in the original source medium         : 4769 (0x12A1)
Format                                   : PGS
Muxing mode                              : zlib
Codec ID                                 : S_HDMV/PGS
Codec ID/Info                            : Picture based subtitle format used on BDs/HD-DVDs
Duration                                 : 1 h 26 min
Bit rate                                 : 31.8 kb/s
Frame rate                               : 0.323 FPS
Count of elements                        : 1674
Stream size                              : 19.6 MiB (0%)
Language                                 : French
Default                                  : No
Forced                                   : No
Original source medium                   : Blu-ray

Text #5
ID                                       : 10
ID in the original source medium         : 4770 (0x12A2)
Format                                   : PGS
Muxing mode                              : zlib
Codec ID                                 : S_HDMV/PGS
Codec ID/Info                            : Picture based subtitle format used on BDs/HD-DVDs
Duration                                 : 1 h 24 min
Bit rate                                 : 27.8 kb/s
Frame rate                               : 0.329 FPS
Count of elements                        : 1666
Stream size                              : 16.8 MiB (0%)
Language                                 : Spanish
Default                                  : No
Forced                                   : No
Original source medium                   : Blu-ray

Menu
00:00:00.000                             : en:Chapter 01
00:05:03.303                             : en:Chapter 02
00:14:52.892                             : en:Chapter 03
00:23:46.133                             : en:Chapter 04
00:29:35.356                             : en:Chapter 05
00:35:36.801                             : en:Chapter 06
00:45:13.293                             : en:Chapter 07
00:55:12.809                             : en:Chapter 08
01:04:57.101                             : en:Chapter 09
01:11:03.384                             : en:Chapter 10
01:18:26.368                             : en:Chapter 11
01:24:52.504                             : en:Chapter 12





来源:http://www.12558.net
免责声明:如果侵犯了您的权益,请联系站长,我们会及时删除侵权内容,谢谢合作!
楼主热帖
您需要登录后才可以回帖 登录 | 立即注册

本版积分规则

QQ|Archiver|手机版|小黑屋|12558网页游戏私服论坛 |网站地图

GMT+8, 2022-10-5 13:37 , Processed in 0.125000 second(s), 22 queries .

Powered by Discuz! X3.4

© 2001-2017 Comsenz Inc.

快速回复 返回顶部 返回列表